Topic: I downloaded Guy J - Esperanza from Beatport and there is no cue file

Hi,

I downloaded GUY J - Esperanza (the whole thing: all tracks plus DJ mix) because it's sold out in stores.

It's the only DJ mix I have ever downloaded from Beatport since normally I buy mixes in shops or Amazon on CD and I download tracks from Beatport to play on my CDJs.

It would be nice to burn the continuous DJ mix on a CD to listen in car etc etc, but it would be nicer to burn it with track markers to be able to move to a specific track.

Does anybody happen to have or recreate the .cue file from CD?

I don't know whether what I am asking is against some policy, but I think the .cue file can be freely shared since it contains no copyrighted material.

Re: I downloaded Guy J - Esperanza from Beatport and there is no cue file

I would never buy a mix off beatport for that reason

Re: I downloaded Guy J - Esperanza from Beatport and there is no cue file

here you go just make sure you change the 3rd line to match your file name:

PERFORMER "Guy J"
TITLE "Esperanza"
FILE "guy_j-esperanza.mp3" MP3
  TRACK 01 AUDIO
    TITLE "Indigo fields"
    PERFORMER "Guy J"
    INDEX 01 00:00:00
  TRACK 02 AUDIO
    TITLE "Nebula"
    PERFORMER "Guy J"
    INDEX 01 03:06:45
  TRACK 03 AUDIO
    TITLE "Geko"
    PERFORMER "Guy J"
    INDEX 01 08:17:36
  TRACK 04 AUDIO
    TITLE "Mikro"
    PERFORMER "Guy J"
    INDEX 01 12:57:27
  TRACK 05 AUDIO
    TITLE "2 Steps"
    PERFORMER "Guy J"
    INDEX 01 16:47:58
  TRACK 06 AUDIO
    TITLE "Under pressure"
    PERFORMER "Guy J"
    INDEX 01 20:07:47
  TRACK 07 AUDIO
    TITLE "Love is not alone"
    PERFORMER "Guy J"
    INDEX 01 23:20:61
  TRACK 08 AUDIO
    TITLE "Save me"
    PERFORMER "Guy J"
    INDEX 01 28:13:30
  TRACK 09 AUDIO
    TITLE "I see you next time"
    PERFORMER "Guy J"
    INDEX 01 33:49:69
  TRACK 10 AUDIO
    TITLE "Druma"
    PERFORMER "Guy J"
    INDEX 01 37:54:17
  TRACK 11 AUDIO
    TITLE "7 Steps"
    PERFORMER "Guy J"
    INDEX 01 43:04:22
  TRACK 12 AUDIO
    TITLE "Esperanza"
    PERFORMER "Guy J"
    INDEX 01 45:36:42

Re: I downloaded Guy J - Esperanza from Beatport and there is no cue file

i would never buy a mix off beatport either

PA Hire London
Live Sound Hire
Sound Hire Surrey

Re: I downloaded Guy J - Esperanza from Beatport and there is no cue file

I wouldn't care if the mix had a cue file or not